MUSIC FIX pour Mortal Kombat Trilogy [E] [SLES-02509] [Midway Classic]

Accueil Forums ISO playstation 1 MUSIC FIX pour Mortal Kombat Trilogy [E] [SLES-02509] [Midway Classic]

Mots-clés : 

Ce sujet a 1 réponse, 1 participant et a été mis à jour par hidora hidora, il y a 10 mois et 1 semaine.

2 sujets de 1 à 2 (sur un total de 2)
  • Auteur
    Messages
  • #70014
    hidora
    hidora
    Participant

    Bonjour!
    J’ai trouvé comment corriger l’absence de musique dans Mortal Kombat Trilogy [E] [SLES-02509] [Midway Classic]
    Voici le fichier * .cue approprié pour ce jeu
    Bonne chance et désolé pour mon français!

    #70015
    hidora
    hidora
    Participant

    Oh, les fichiers * .cue ne sont pas pris en charge sur ce forum
    Voici le contenu du fichier:

    FILE “MORTAL KOMBAT TRILOGY (E) (V1.1) (Track 01).bin” BINARY
    TRACK 01 MODE2/2352
    INDEX 01 00:00:00
    FILE “MORTAL KOMBAT TRILOGY (E) (V1.1) (Track 02).bin” BINARY
    TRACK 02 AUDIO
    INDEX 00 00:00:00
    INDEX 01 00:02:00
    FILE “MORTAL KOMBAT TRILOGY (E) (V1.1) (Track 03).bin” BINARY
    TRACK 03 AUDIO
    INDEX 00 00:00:00
    INDEX 01 00:02:00
    FILE “MORTAL KOMBAT TRILOGY (E) (V1.1) (Track 04).bin” BINARY
    TRACK 04 AUDIO
    INDEX 00 00:00:00
    INDEX 01 00:02:00
    FILE “MORTAL KOMBAT TRILOGY (E) (V1.1) (Track 05).bin” BINARY
    TRACK 05 AUDIO
    INDEX 00 00:00:00
    INDEX 01 00:02:00
    FILE “MORTAL KOMBAT TRILOGY (E) (V1.1) (Track 06).bin” BINARY
    TRACK 06 AUDIO
    INDEX 00 00:00:00
    INDEX 01 00:02:00
    FILE “MORTAL KOMBAT TRILOGY (E) (V1.1) (Track 07).bin” BINARY
    TRACK 07 AUDIO
    INDEX 00 00:00:00
    INDEX 01 00:02:00
    FILE “MORTAL KOMBAT TRILOGY (E) (V1.1) (Track 08).bin” BINARY
    TRACK 08 AUDIO
    INDEX 00 00:00:00
    INDEX 01 00:02:00
    FILE “MORTAL KOMBAT TRILOGY (E) (V1.1) (Track 09).bin” BINARY
    TRACK 09 AUDIO
    INDEX 00 00:00:00
    INDEX 01 00:02:00
    FILE “MORTAL KOMBAT TRILOGY (E) (V1.1) (Track 10).bin” BINARY
    TRACK 10 AUDIO
    INDEX 00 00:00:00
    INDEX 01 00:02:00
    FILE “MORTAL KOMBAT TRILOGY (E) (V1.1) (Track 11).bin” BINARY
    TRACK 11 AUDIO
    INDEX 00 00:00:00
    INDEX 01 00:02:00
    FILE “MORTAL KOMBAT TRILOGY (E) (V1.1) (Track 12).bin” BINARY
    TRACK 12 AUDIO
    INDEX 00 00:00:00
    INDEX 01 00:02:00
    FILE “MORTAL KOMBAT TRILOGY (E) (V1.1) (Track 13).bin” BINARY
    TRACK 13 AUDIO
    INDEX 00 00:00:00
    INDEX 01 00:02:00
    FILE “MORTAL KOMBAT TRILOGY (E) (V1.1) (Track 14).bin” BINARY
    TRACK 14 AUDIO
    INDEX 00 00:00:00
    INDEX 01 00:02:00
    FILE “MORTAL KOMBAT TRILOGY (E) (V1.1) (Track 15).bin” BINARY
    TRACK 15 AUDIO
    INDEX 00 00:00:00
    INDEX 01 00:02:00
    FILE “MORTAL KOMBAT TRILOGY (E) (V1.1) (Track 16).bin” BINARY
    TRACK 16 AUDIO
    INDEX 00 00:00:00
    INDEX 01 00:02:00
    FILE “MORTAL KOMBAT TRILOGY (E) (V1.1) (Track 17).bin” BINARY
    TRACK 17 AUDIO
    INDEX 00 00:00:00
    INDEX 01 00:02:00
    FILE “MORTAL KOMBAT TRILOGY (E) (V1.1) (Track 18).bin” BINARY
    TRACK 18 AUDIO
    INDEX 00 00:00:00
    INDEX 01 00:02:00
    FILE “MORTAL KOMBAT TRILOGY (E) (V1.1) (Track 19).bin” BINARY
    TRACK 19 AUDIO
    INDEX 00 00:00:00
    INDEX 01 00:02:00
    FILE “MORTAL KOMBAT TRILOGY (E) (V1.1) (Track 20).bin” BINARY
    TRACK 20 AUDIO
    INDEX 00 00:00:00
    INDEX 01 00:02:00
    FILE “MORTAL KOMBAT TRILOGY (E) (V1.1) (Track 21).bin” BINARY
    TRACK 21 AUDIO
    INDEX 00 00:00:00
    INDEX 01 00:02:00
    FILE “MORTAL KOMBAT TRILOGY (E) (V1.1) (Track 22).bin” BINARY
    TRACK 22 AUDIO
    INDEX 00 00:00:00
    INDEX 01 00:02:00
    FILE “MORTAL KOMBAT TRILOGY (E) (V1.1) (Track 23).bin” BINARY
    TRACK 23 AUDIO
    INDEX 00 00:00:00
    INDEX 01 00:02:00
    FILE “MORTAL KOMBAT TRILOGY (E) (V1.1) (Track 24).bin” BINARY
    TRACK 24 AUDIO
    INDEX 00 00:00:00
    INDEX 01 00:02:00
    FILE “MORTAL KOMBAT TRILOGY (E) (V1.1) (Track 25).bin” BINARY
    TRACK 25 AUDIO
    INDEX 00 00:00:00
    INDEX 01 00:02:00
    FILE “MORTAL KOMBAT TRILOGY (E) (V1.1) (Track 26).bin” BINARY
    TRACK 26 AUDIO
    INDEX 00 00:00:00
    INDEX 01 00:02:00
    FILE “MORTAL KOMBAT TRILOGY (E) (V1.1) (Track 27).bin” BINARY
    TRACK 27 AUDIO
    INDEX 00 00:00:00
    INDEX 01 00:02:00
    FILE “MORTAL KOMBAT TRILOGY (E) (V1.1) (Track 28).bin” BINARY
    TRACK 28 AUDIO
    INDEX 00 00:00:00
    INDEX 01 00:02:00
    FILE “MORTAL KOMBAT TRILOGY (E) (V1.1) (Track 29).bin” BINARY
    TRACK 29 AUDIO
    INDEX 00 00:00:00
    INDEX 01 00:02:00
    FILE “MORTAL KOMBAT TRILOGY (E) (V1.1) (Track 30).bin” BINARY
    TRACK 30 AUDIO
    INDEX 00 00:00:00
    INDEX 01 00:02:00

    • Cette réponse a été modifiée le il y a 10 mois et 1 semaine par hidora hidora.
2 sujets de 1 à 2 (sur un total de 2)

Vous devez être connecté pour répondre à ce sujet.